2 comments

Category:
Date:
2021-08-15 12:18
Submitter:
Yurasuka
Seeders:
15
Information:
Leechers:
12
File size:
11.2 GiB
Completed:
12
Info hash:
eeba9fc73419c95b706f7bd38458c91b8499d692
Noragami Season 1 (2014) v2 I was not happy with the aliasing from the BD so I re-encoded all of it. It looks significantly better while also being smaller. I think I will also redo some of my older encodes like Yuushibu that suffer similar issues. [Comparison between v1 and v2](https://slow.pics/c/FbJiPdGO) All 4 subtitle tracks from KH are included again. [Full mediainfo here](https://pastebin.com/raw/xFS2JpxG) since it is too long. Note that only the English track is 5.1, the Japanese track is stereo. A/V Source: Mysterious Riddle BD Remux (JP) Subtitles + English Audio: [KH (Kametsu, BlurayDesuYo, FFF)](https://nyaa.si/view/1436278) ``` Complete name : Noragami.S01E12.v2.1080p.BluRay.10-Bit.Dual-Audio.FLAC5.1.x265-YURASUKA.mkv Format : Matroska Format version : Version 4 File size : 1.07 GiB Duration : 23 min 59 s Overall bit rate mode : Variable Overall bit rate : 6 414 kb/s Movie name : Noragami - S01E12 - YURASUKA Encoded date : UTC 2021-10-13 18:48:36 Writing application : mkvmerge v61.0.0 ('So') 64-bit Writing library : libebml v1.4.2 + libmatroska v1.6.3 Attachments : Anyong.ttf / Assassin$.ttf / BRUSHTYPE_SEMIBOLDA_(WWWW.FONT-CAT.COM).TTF / FOT-TSUKUMINPR5-EN-H.TTF / GEIKAISUIKOU-EN.TTF / IWAOMINPRO-FATE-HV.TTF / PROFFESIONAL.ttf / SKARPA REGULAR.TTF / SOURCESANSPRO-BOLD.OTF / SOURCESANSPRO-BOLDIT.OTF / ArnoPro-Bold.otf / BSOD.ttf / ConferenceD.TTF / InterNuT_Round.ttf / Mixage_Bold_BT.ttf / MIXAGE_BOLD_ITALIC_BT.TTF / OldCentury Regular.ttf Video ID : 1 Format : HEVC Format/Info : High Efficiency Video Coding Format profile : Main [email protected]@Main Codec ID : V_MPEGH/ISO/HEVC Duration : 23 min 59 s Bit rate : 3 502 kb/s Width : 1 920 pixels Height : 1 080 pixels Display aspect ratio : 16:9 Frame rate mode : Constant Frame rate : 23.976 (24000/1001) FPS Color space : YUV Chroma subsampling : 4:2:0 Bit depth : 10 bits Bits/(Pixel*Frame) : 0.070 Stream size : 601 MiB (55%) Title : YURASUKA 1080p x265 Writing library : x265 3.5:[Linux][GCC 10.2.0][64 bit] 10bit Encoding settings : cpuid=1111039 / frame-threads=4 / numa-pools=16 / wpp / no-pmode / no-pme / no-psnr / no-ssim / log-level=2 / input-csp=1 / input-res=1920x1080 / interlace=0 / total-frames=0 / level-idc=0 / high-tier=1 / uhd-bd=0 / ref=6 / no-allow-non-conformance / no-repeat-headers / annexb / no-aud / no-hrd / info / hash=0 / no-temporal-layers / open-gop / min-keyint=1 / keyint=360 / gop-lookahead=0 / bframes=16 / b-adapt=2 / b-pyramid / bframe-bias=0 / rc-lookahead=72 / lookahead-slices=4 / scenecut=40 / hist-scenecut=0 / radl=0 / no-splice / no-intra-refresh / ctu=64 / min-cu-size=8 / rect / amp / max-tu-size=32 / tu-inter-depth=4 / tu-intra-depth=4 / limit-tu=0 / rdoq-level=2 / dynamic-rd=0.00 / no-ssim-rd / signhide / tskip / nr-intra=0 / nr-inter=0 / no-constrained-intra / no-strong-intra-smoothing / max-merge=3 / limit-refs=3 / limit-modes / me=3 / subme=4 / merange=57 / temporal-mvp / no-frame-dup / no-hme / weightp / weightb / no-analyze-src-pics / deblock=0:0 / no-sao / no-sao-non-deblock / rd=4 / selective-sao=0 / no-early-skip / rskip / no-fast-intra / no-tskip-fast / no-cu-lossless / b-intra / no-splitrd-skip / rdpenalty=0 / psy-rd=1.20 / psy-rdoq=2.00 / no-rd-refine / no-lossless / cbqpoffs=0 / crqpoffs=0 / rc=crf / crf=16.0 / qcomp=0.65 / qpstep=4 / stats-write=0 / stats-read=0 / ipratio=1.40 / pbratio=1.30 / aq-mode=3 / aq-strength=0.80 / cutree / zone-count=0 / no-strict-cbr / qg-size=32 / no-rc-grain / qpmax=69 / qpmin=0 / no-const-vbv / sar=0 / overscan=0 / videoformat=5 / range=0 / colorprim=1 / transfer=1 / colormatrix=1 / chromaloc=0 / display-window=0 / cll=0,0 / min-luma=0 / max-luma=1023 / log2-max-poc-lsb=8 / vui-timing-info / vui-hrd-info / slices=1 / no-opt-qp-pps / no-opt-ref-list-length-pps / no-multi-pass-opt-rps / scenecut-bias=0.05 / hist-threshold=0.03 / no-opt-cu-delta-qp / no-aq-motion / no-hdr10 / no-hdr10-opt / no-dhdr10-opt / no-idr-recovery-sei / analysis-reuse-level=0 / analysis-save-reuse-level=0 / analysis-load-reuse-level=0 / scale-factor=0 / refine-intra=0 / refine-inter=0 / refine-mv=1 / refine-ctu-distortion=0 / no-limit-sao / ctu-info=0 / no-lowpass-dct / refine-analysis-type=0 / copy-pic=1 / max-ausize-factor=1.0 / no-dynamic-refine / no-single-sei / no-hevc-aq / no-svt / no-field / qp-adaptation-range=1.00 / scenecut-aware-qp=0conformance-window-offsets / right=0 / bottom=0 / decoder-max-rate=0 / no-vbv-live-multi-pass Language : Japanese Default : Yes Forced : No Color range : Limited Color primaries : BT.709 Transfer characteristics : BT.709 Matrix coefficients : BT.709 Audio #1 ID : 2 Format : FLAC Format/Info : Free Lossless Audio Codec Codec ID : A_FLAC Duration : 23 min 58 s Bit rate mode : Variable Bit rate : 2 056 kb/s Channel(s) : 6 channels Channel layout : L R C LFE Ls Rs Sampling rate : 48.0 kHz Frame rate : 10.417 FPS (4608 SPF) Bit depth : 16 bits Compression mode : Lossless Stream size : 353 MiB (32%) Title : English FLAC 5.1 Writing library : Lavf58.76.100 Language : English Default : Yes Forced : No Audio #2 ID : 3 Format : FLAC Format/Info : Free Lossless Audio Codec Codec ID : A_FLAC Duration : 23 min 59 s Bit rate mode : Variable Bit rate : 826 kb/s Channel(s) : 2 channels Channel layout : L R Sampling rate : 48.0 kHz Frame rate : 10.417 FPS (4608 SPF) Bit depth : 16 bits Compression mode : Lossless Stream size : 142 MiB (13%) Title : Japanese FLAC 2.0 Writing library : Lavf58.76.100 Language : Japanese Default : No Forced : No Text #1 ID : 4 Format : ASS Codec ID : S_TEXT/ASS Codec ID/Info : Advanced Sub Station Alpha Duration : 22 min 7 s Bit rate : 841 b/s Count of elements : 896 Compression mode : Lossless Stream size : 136 KiB (0%) Title : Signs / Songs [Kametsu] (BDY+FFF) Language : English Default : Yes Forced : Yes Text #2 ID : 5 Format : ASS Codec ID : S_TEXT/ASS Codec ID/Info : Advanced Sub Station Alpha Duration : 23 min 49 s Bit rate : 851 b/s Count of elements : 1160 Compression mode : Lossless Stream size : 149 KiB (0%) Title : Full Subs [Kametsu] (BDY+FFF) Language : Japanese Default : No Forced : No [...] Menu 00:00:00.000 : Intro 00:01:45.000 : OP 00:03:14.960 : Part A 00:13:46.010 : Part B 00:22:25.030 : ED ``` Dead end for a sucker that’s a sucker like me. 私のような吸盤の行き止まりです。

File list

  • Noragami.S01.v2.1080p.BluRay.10-Bit.Dual-Audio.FLAC5.1.x265-YURASUKA
    • Noragami.S01E01.v2.1080p.BluRay.10-Bit.Dual-Audio.FLAC5.1.x265-YURASUKA.mkv (970.5 MiB)
    • Noragami.S01E02.v2.1080p.BluRay.10-Bit.Dual-Audio.FLAC5.1.x265-YURASUKA.mkv (957.7 MiB)
    • Noragami.S01E03.v2.1080p.BluRay.10-Bit.Dual-Audio.FLAC5.1.x265-YURASUKA.mkv (959.4 MiB)
    • Noragami.S01E04.v2.1080p.BluRay.10-Bit.Dual-Audio.FLAC5.1.x265-YURASUKA.mkv (1014.1 MiB)
    • Noragami.S01E05.v2.1080p.BluRay.10-Bit.Dual-Audio.FLAC5.1.x265-YURASUKA.mkv (854.9 MiB)
    • Noragami.S01E06.v2.1080p.BluRay.10-Bit.Dual-Audio.FLAC5.1.x265-YURASUKA.mkv (1.0 GiB)
    • Noragami.S01E07.v2.1080p.BluRay.10-Bit.Dual-Audio.FLAC5.1.x265-YURASUKA.mkv (879.3 MiB)
    • Noragami.S01E08.v2.1080p.BluRay.10-Bit.Dual-Audio.FLAC5.1.x265-YURASUKA.mkv (860.4 MiB)
    • Noragami.S01E09.v2.1080p.BluRay.10-Bit.Dual-Audio.FLAC5.1.x265-YURASUKA.mkv (995.7 MiB)
    • Noragami.S01E10.v2.1080p.BluRay.10-Bit.Dual-Audio.FLAC5.1.x265-YURASUKA.mkv (911.9 MiB)
    • Noragami.S01E11.v2.1080p.BluRay.10-Bit.Dual-Audio.FLAC5.1.x265-YURASUKA.mkv (891.3 MiB)
    • Noragami.S01E12.v2.1080p.BluRay.10-Bit.Dual-Audio.FLAC5.1.x265-YURASUKA.mkv (1.1 GiB)